토르 : 천둥의 신 Thor (2011) DVDRip XviD-MAXSPEED Torrent







Thor (2011) DVDRip XviD-MAXSPEED
.
Format : AVI
Format/Info : Audio Video Interleave
Format profile : OpenDML
File size : 1.62 GiB
Duration : 1h 54mn
Overall bit rate : 2 022 Kbps
Writing application : VirtualDubMod 1.5.10.2 (build 2542/release)
Writing library : VirtualDubMod build 2542/release
Original source form : MAX TORRENTZ
Copyright : SIGISMUNT
.
Video
ID : 0
Format : MPEG-4 Visual
Format profile : AdvancedSimple@L5
Format settings, BVOP : Yes
Format settings, QPel : No
Format settings, GMC : No warppoints
Format settings, Matrix : Custom
Codec ID : XVID
Codec ID/Hint : XviD
Duration : 1h 54mn
Bit rate : 1 569 Kbps
Width : 720 pixels
Height : 304 pixels
Display aspect ratio : 2.35:1
Frame rate : 23.976 fps
Resolution : 24 bits
Colorimetry : 4:2:0
Scan type : Progressive
Bits/(Pixel*Frame) : 0.299
Stream size : 1.26 GiB (78%)
Writing library : XviD 58
.
Audio
ID : 1
Format : AC-3
Format/Info : Audio Coding 3
Codec ID : 2000
Duration : 1h 54mn
Bit rate mode : Constant
Bit rate : 448 Kbps
Channel(s) : 6 channels
Channel positions : Front: L C R, Surround: L R, LFE
Sampling rate : 48.0 KHz
Stream size : 368 MiB (22%)
Alignment : Aligned on interleaves
Interleave, duration : 64 ms (1.53 video frames)
Interleave, preload duration : 192 ms
.
Source: DVD+AC3 (perfect a/v/sync quality,sample included)
This torrent is not seedbox supported,please seed it to the MAX
.
Note:If you have something to offer as early releases,seedboxes,links,accounts,etc
please contact us on piratepedia[@]msn/gmail.com or our website torentz 3xforum ro
.
How To Get Your Maxspeed (uTorrent)
.
Torrent Client - Preferences - Bandwidth - Number of connections - Set aprox. 500 for each
Torrent Client - Preferences - BiTorrent - Protocol Encryption - Forced
Bandwidth Allocation - High (Set download/upload limit - Unlimited)
Stop Other Active Torrents - Start downloading and wait for connections.
Enjoy and Seed for at least 1:1 ratio. Don't forget to say thanks/leave reviews.
Before downloading you should check/google search sample "release name""sample".
Greets to all actual/future p2p/scene QUALITY groups and affiliate websites.
Don't trust IMDb robot or bad ratings,always watch some trailers first.
Ignore stupid comments/fake/mislabeled/no-DVDrips/CAM/TS/RAR uploads.
Please spread this release/torrent to your friends/forums/etc.
If you need translation subs visit some subtitles sites.
Report if you see online streaming or other spam links.
Recommended movie player VLC PLAYER.

























Files:

sample.avi16.1 MB
screencaps.jpeg545.5 KB
Thor (2011) DVDRip XviD-MAXSPEED www.torentz.3xforum.ro.avi1.6 GB
Thor (2011) DVDRip XviD-MAXSPEED.nfo2.6 KB
Torrent downloaded from Demonoid.me.txt46 Bytes
Torrent downloaded from Extratorrent.com.txt40 Bytes
Torrent downloaded from h33t.com.txt32 Bytes
Torrent downloaded from Rarbg.com.txt33 Bytes

1.64 GB in 8 files.





1316843502_Thor (2011) DVDRip XviD-MAXSPEED.torrent

1316843755_1.jpg

1316843755_2.jpg

1316843755_3.jpg

1316843755_4.jpg

1316843755_5.jpg

1316843755_photo-45352.jpg

Posted by 파란티스 Trackback 6 : Comment 1

댓글을 달아 주세요

  1. addr | edit/del | reply 2011.09.24 14:57

    비밀댓글입니다