따만쩨, तमंचे, Tamanchey.2014.Hindi.HDRip.X264 - N3kr4.mp4 (693MB) 한글자막

 

 

 

 

 

 

 

 

 

 

 

 

 


Tamanchey (2014)

 

113 min - Crime | Romance - 10 October 2014 (India)

5.5 Your rating: -/10 Ratings: 5.5/10 from 66 users

Reviews: 3 user | 8 critic

 

An aggressive, passionate acidic love story between

two criminals whilst on the run from the law.

 

SCREENSHOT

SCREENSHOT

SCREENSHOT

SCREENSHOT

SCREENSHOT

 

General

Complete name : Tamanchey.2014.Hindi.HDRip.X264 - N3kr4.mp4

Format : MPEG-4

Format profile : Base Media

Codec ID : isom

File size : 693 MiB

Duration : 1h 53mn

Overall bit rate : 852 Kbps

Encoded date : UTC 2014-11-29 10:04:40

Tagged date : UTC 2014-11-29 10:04:40

 

Video

ID : 1

Format : AVC

Format/Info : Advanced Video Codec

Format profile : [email protected]

Format settings, CABAC : Yes

Format settings, ReFrames : 3 frames

Codec ID : avc1

Codec ID/Info : Advanced Video Coding

Duration : 1h 53mn

Bit rate : 777 Kbps

Maximum bit rate : 6 548 Kbps

Width : 640 pixels

Height : 272 pixels

Display aspect ratio : 2.35:1

Frame rate mode : Constant

Frame rate : 30.000 fps

Color space : YUV

Chroma subsampling : 4:2:0

Bit depth : 8 bits

Scan type : Progressive

Bits/(Pixel*Frame) : 0.149

Stream size : 626 MiB (90%)

Writing library : x264 core 142 r2431 ac76440

Encoding settings : cabac=1 / ref=3 / deblock=1:-1:-1 / analyse=0x1:0x111 / me=hex / subme=6 / psy=1 / psy_rd=1.00:0.15 / mixed_ref=1 / me_range=16 / chroma_me=1 / trellis=2 / 8x8dct=0 / cqm=0 / deadzone=21,11 / fast_pskip=1 / chroma_qp_offset=-3 / threads=48 / lookahead_threads=2 / sliced_threads=0 / nr=0 / decimate=1 / interlaced=0 / bluray_compat=0 / constrained_intra=0 / bframes=3 / b_pyramid=0 / b_adapt=2 / b_bias=0 / direct=2 / weightb=1 / open_gop=0 / weightp=2 / keyint=288 / keyint_min=28 / scenecut=48 / intra_refresh=0 / rc_lookahead=48 / rc=abr / mbtree=1 / bitrate=777 / ratetol=1.0 / qcomp=0.60 / qpmin=0 / qpmax=69 / qpstep=4 / vbv_maxrate=14000 / vbv_bufsize=14000 / nal_hrd=none / filler=0 / ip_ratio=1.40 / aq=1:1.00

Encoded date : UTC 2014-11-29 05:46:26

Tagged date : UTC 2014-11-29 10:04:44

Color primaries : BT.601 NTSC

Transfer characteristics : BT.601

Matrix coefficients : BT.601

 

Audio

ID : 2

Format : MPEG Audio

Format version : Version 1

Format profile : Layer 3

Mode : Joint stereo

Mode extension : MS Stereo

Codec ID : 6B

Duration : 1h 53mn

Bit rate mode : Constant

Bit rate : 80.0 Kbps

Maximum bit rate : 83.5 Kbps

Channel(s) : 2 channels

Sampling rate : 32.0 KHz

Compression mode : Lossy

Stream size : 65.1 MiB (9%)

Writing library : LAME3.99r

Encoding settings : -m j -V 4 -q 2 -lowpass 13.5 -b 80

Encoded date : UTC 2014-11-29 10:04:44

Tagged date : UTC 2014-11-29 10:04:44

 

 

 

 

 

 

 

Tamanchey.2014.Hindi.HDRip.X264 - N3kr4.smi

 

 

 

 

 

 

Posted by 파란티스 Trackback 0 : Comment 0

댓글을 달아 주세요