사남 떼리 까삼, सनम तेरी कसम, Sanam Teri Kasam (2016) - 720p - DVD-Rip - Hindi -  x264 - AC3 - 5.1 - Esubs - [PKG].mkv (1.31GB) 한글자막

 

 

 

 

 

 

 

 

 

Code:

General
Unique ID : 186561788343750539777560348419399505737 (0x8C5A7E53B853DEB18340C22D78265749)
Complete name : E:\encode\Sanam Teri Kasam (2016) - 720p - DVD-Rip - Hindi - x264 - AC3 - 5.1 - Esubs - [PKG]\Sanam Teri Kasam (2016) - 720p - DVD-Rip - Hindi - x264 - AC3 - 5.1 - Esubs - [PKG].mkv
Format : Matroska
Format version : Version 4 / Version 2
File size : 1.32 GiB
Duration : 2h 34mn
Overall bit rate : 1 225 Kbps
Movie name : Sanam Teri Kasam (2016) - 720p - DVD-Rip - Hindi - x264 - AC3 - 5.1 - Esubs - [PKG]
Encoded date : UTC 2016-03-24 11:15:09
Writing application : mkvmerge v8.9.0 ('Father Daughter') 64bit
Writing library : libebml v1.3.3 + libmatroska v1.4.4
DURATION : 02:33:37.692000000
NUMBER_OF_FRAMES : 1539
NUMBER_OF_BYTES : 45435

Video
ID : 1
Format : AVC
Format/Info : Advanced Video Codec
Format profile : [email protected]/* */
Format settings, CABAC : Yes
Format settings, ReFrames : 12 frames
Codec ID : V_MPEG4/ISO/AVC
Duration : 2h 34mn
Bit rate : 1 000 Kbps
Width : 1 280 pixels
Height : 544 pixels
Display aspect ratio : 2.35:1
Frame rate mode : Constant
Frame rate : 23.976 fps
Color space : YUV
Chroma subsampling : 4:2:0
Bit depth : 8 bits
Scan type : Progressive
Bits/(Pixel*Frame) : 0.060
Stream size : 1.05 GiB (80%)
Title : [PKG]
Writing library : x264 core 146 r2538 121396c
Default : Yes
Forced : No
Color primaries : Generic film
Transfer characteristics : BT.709
Matrix coefficients : BT.709
Color range : Limited

Audio
ID : 2
Format : AC-3
Format/Info : Audio Coding 3
Mode extension : CM (complete main)
Format settings, Endianness : Big
Codec ID : A_AC3
Duration : 2h 34mn
Bit rate mode : Constant
Bit rate : 224 Kbps
Channel(s) : 6 channels
Channel positions : Front: L C R, Side: L R, LFE
Sampling rate : 48.0 KHz
Bit depth : 16 bits
Compression mode : Lossy
Stream size : 247 MiB (18%)
Title : [PKG]
Language : Hindi
Default : Yes
Forced : Yes

Text
ID : 3
Format : UTF-8
Codec ID : S_TEXT/UTF8
Codec ID/Info : UTF-8 Plain Text
Title : [PKG]
Language : English
Default : Yes
Forced : No

 

 

 

 

 

 


 

 

 

 

Sanam Teri Kasam (2016) - 720p - DVD-Rip - Hindi - x264 - AC3 -

 

 

 

 

Posted by 파란티스 Trackback 0 : Comment 0

댓글을 달아 주세요