VA 써커퍼치 Sucker Punch - OST (2011)(FLAC)(312MB)
Various Artists - Sucker Punch OST (2011) [FLAC]









Track List

1. Emily Browning - Sweet Dreams (are made of this)
2. Bjà rk feat. Skunk Anansie - Army Of Me (Sucker Punch Remix)
3. Emiliana Torrini - White Rabbit
4. Queen with Armageddon a.k.a Geddy - I Want It All/We Will Rock You
5. Skunk Anansie - Search And Destroy
6. Alison Mosshart and Carla Azar - Tomorrow Never Knows
7. Yoav feat. Emily Browning - Where Is My Mind
8. Emily Browning - Asleep
9. Carla Gugino and Oscar Isaac - Love Is The Drug






Exact Audio Copy V1.0 beta 1 from 15. November 2010

EAC extraction logfile from 27. March 2011, 16:44

Various / Sucker Punch

Used drive : PIONEER DVR-113NP Adapter: 1 ID: 0

Read mode : Secure
Utilize accurate stream : Yes
Defeat audio cache : Yes
Make use of C2 pointers : No

Read offset correction : 6
Overread into Lead-In and Lead-Out : No
Fill up missing offset samples with silence : Yes
Delete leading and trailing silent blocks : No
Null samples used in CRC calculations : Yes
Used interface : Native Win32 interface for Win NT & 2000
Gap handling : Appended to previous track

Used output format : User Defined Encoder
Selected bitrate : 896 kBit/s
Quality : High
Add ID3 tag : No
Command line compressor : C:\Program Files (x86)\Exact Audio Copy\FLAC\FLAC.EXE
Additional command line options : -8 -V -T "Artist=%a" -T "Title=%t" -T "Album=%g" -T "DATE=%y" -T "TRACKNUMBER=%n" -T "Genre=%m" -T "ALBUMARTIST=%v" -T "ALBUM ARTIST=%v" -T "COMMENT=EAC Secure Mode, Test & Copy, AccurateRip, FLAC -8" %s


TOC of the extracted CD

Track | Start | Length | Start sector | End sector
---------------------------------------------------------
1 | 0:00.00 | 5:18.48 | 0 | 23897
2 | 5:18.48 | 6:50.48 | 23898 | 54695
3 | 12:09.21 | 5:08.42 | 54696 | 77837
4 | 17:17.63 | 5:08.39 | 77838 | 100976
5 | 22:26.27 | 4:25.16 | 100977 | 120867
6 | 26:51.43 | 7:35.06 | 120868 | 154998
7 | 34:26.49 | 6:11.43 | 154999 | 182866
8 | 40:38.17 | 4:23.20 | 182867 | 202611
9 | 45:01.37 | 4:12.55 | 202612 | 221566


Track 1

Filename D:\My Rips What.CD\Sucker Punch OST\-1 - Emily Browning - Sweet Dreams (are made of this).wav

Pre-gap length 0:00:02.00

Peak level 98.9 %
Extraction speed 5.1 X
Track quality 100.0 %
Test CRC F4BE31EF
Copy CRC F4BE31EF
Track not present in AccurateRip database
Copy OK

Track 2

Filename D:\My Rips What.CD\Sucker Punch OST\-2 - Björk featuring Skunk Anansie - Army Of Me (Sucker Punch Remix).wav

Peak level 100.0 %
Extraction speed 5.9 X
Track quality 100.0 %
Test CRC 7F89B0B8
Copy CRC 7F89B0B8
Track not present in AccurateRip database
Copy OK

Track 3

Filename D:\My Rips What.CD\Sucker Punch OST\-3 - Emiliana Torrini - White Rabbit.wav

Peak level 98.6 %
Extraction speed 6.3 X
Track quality 100.0 %
Test CRC E86054AA
Copy CRC E86054AA
Track not present in AccurateRip database
Copy OK

Track 4

Filename D:\My Rips What.CD\Sucker Punch OST\-4 - Queen with Armageddon a.k.a Geddy - I Want It All,We Will Rock You.wav

Pre-gap length 0:00:01.49

Peak level 98.6 %
Extraction speed 6.7 X
Track quality 100.0 %
Test CRC C00E612F
Copy CRC C00E612F
Track not present in AccurateRip database
Copy OK

Track 5

Filename D:\My Rips What.CD\Sucker Punch OST\-5 - Skunk Anansie - Search And Destroy.wav

Pre-gap length 0:00:00.97

Peak level 98.7 %
Extraction speed 7.0 X
Track quality 100.0 %
Test CRC 9F68A8F4
Copy CRC 9F68A8F4
Track not present in AccurateRip database
Copy OK

Track 6

Filename D:\My Rips What.CD\Sucker Punch OST\-6 - Alison Mosshart and Carla Azar - Tomorrow Never Knows.wav

Pre-gap length 0:00:00.92

Peak level 98.6 %
Extraction speed 7.7 X
Track quality 100.0 %
Test CRC 6650F77A
Copy CRC 6650F77A
Track not present in AccurateRip database
Copy OK

Track 7

Filename D:\My Rips What.CD\Sucker Punch OST\-7 - Yoav featuring Emily Browning - Where Is My Mind.wav

Peak level 98.7 %
Extraction speed 6.1 X
Track quality 99.9 %
Test CRC 0F4A1DDC
Copy CRC 0F4A1DDC
Track not present in AccurateRip database
Copy OK

Track 8

Filename D:\My Rips What.CD\Sucker Punch OST\-8 - Emily Browning - Asleep.wav

Pre-gap length 0:00:00.13

Peak level 98.8 %
Extraction speed 8.2 X
Track quality 100.0 %
Test CRC CAEE1ABC
Copy CRC CAEE1ABC
Track not present in AccurateRip database
Copy OK

Track 9

Filename D:\My Rips What.CD\Sucker Punch OST\-9 - Carla Gugino and Oscar Isaac - Love Is The Drug.wav

Pre-gap length 0:00:02.88

Peak level 98.7 %
Extraction speed 8.4 X
Track quality 100.0 %
Test CRC 084993F1
Copy CRC 084993F1
Track not present in AccurateRip database
Copy OK


None of the tracks are present in the AccurateRip database

No errors occurred

End of status report

==== Log checksum 2DAB11016D12C9E1E131202054B924A5DA5EF22539B38D32C6 967A110B8B5276 ====




Posted by 파란티스 Trackback 0 : Comment 2

댓글을 달아 주세요

  1. addr | edit/del | reply 2012.01.31 16:32

    비밀댓글입니다

  2. addr | edit/del | reply 2012.01.31 16:32

    비밀댓글입니다