와지르, वज़ीर, Wazir.2016.Hindi.720p.DVDRiP.900MB.ShAaNiG.mkv (900MB) 한글자막

 

 

 

 

 

 

 

 

 

 

 

 


[DIRECTOR]:.....................[ Bejoy Nambiar
[RELEASE DATE]:.................[ 8 January 2016 (USA)
[GENRE]:........................[ Crime, Drama, Mystery
[HDTV SUPPORT]:.................[ Yes
[NO OF FILES]:..................[ 1
[VIDEO]:........................[ MKV - x264
[AUDIO]:........................[ AAC - 2CH
[FILE SIZE]:....................[ 900MB
[RESOLUTION]:...................[ 1280x544
[FRAME RATE]:...................[ 23.976 fps
[LANGUAGE]:.....................[ Hindi
[SUBTITLES]:....................[ English [Softcoded] - muxed
[RUNTIME]:......................[ 01:44:06
[ENCODER]:......................[ ShAaNiG
[SOURCE]:.......................[ 720p.DVDRiP-[DDR]

 

 


 

 

 

 

 

 

Wazir.2016.Hindi.720p.DVDRiP.900MB.ShAaNiG.smi

 

 

 

 

 

 

Posted by 파란티스 Trackback 0 : Comment 0

댓글을 달아 주세요

와지르, वज़ीर, Wazir 2016 Hindi (1CD) DVDRip XviD MP3 ESubs - Hon3y.avi (702MB) 한글자막

 

 

 

 

 

 

 

 

 

 

 

Source : DVD9 @ Hon3yHD


Complete name : Wazir 2016 Hindi (1CD) DVDRip XviD MP3 ESubs - Hon3y
Format : AVI
Format/Info : Audio Video Interleave
File size : 702 MiB
Duration : 1h 44mn
Overall bit rate : 943 Kbps

Video
ID : 0
Format : MPEG-4 Visual
Format profile : Advanced Simple@L5
Format settings, BVOP : 2
Format settings, QPel : No
Format settings, GMC : No warppoints
Format settings, Matrix : Default (H.263)
Codec ID : XVID
Codec ID/Hint : XviD
Duration : 1h 44mn
Bit rate : 857 Kbps
Width : 640 pixels
Height : 272 pixels
Display aspect ratio : 2.35:1
Frame rate : 23.976 fps
Color space : YUV
Chroma subsampling : 4:2:0
Bit depth : 8 bits
Scan type : Progressive
Compression mode : Lossy
Bits/(Pixel*Frame) : 0.205
Stream size : 638 MiB (91%)
Writing library : XviD 1.2.1 (UTC 2008-12-04)

Audio
ID : 1
Format : MPEG Audio
Format version : Version 1
Format profile : Layer 3
Mode : Joint stereo
Mode extension : MS Stereo
Codec ID : 55
Codec ID/Hint : MP3
Duration : 1h 44mn
Bit rate mode : Constant
Bit rate : 80.0 Kbps
Channel(s) : 2 channels
Sampling rate : 32.0 KHz
Compression mode : Lossy
Stream size : 59.6 MiB (8%)
Alignment : Aligned on interleaves
Interleave, duration : 167 ms (4.00 video frames)
Interleave, preload duratio : 216 ms
Title : Hon3yHD.Com
Writing library : LAME3.99r
Encoding settings : -m j -V 4 -q 2 -lowpass 13.5 -b 80

 

 

 

 

 

 

 

 

Wazir 2016 Hindi (1CD) DVDRip XviD MP3 ESubs - Hon3y.smi

 

 

 

 

 

 

 

 

Posted by 파란티스 Trackback 0 : Comment 0

댓글을 달아 주세요