소날리 케이블, सोनाली केबल, Sonali Cable (2014) - 720p - WebHD-Rip - Hindi - x264 - AC3 - 5.1 - ESubs - Mafiaking - Team M2TV ExClusive.MKV (938MB) 한글자막

 

 

 

 

 

 

 

 

 


Ratings: 6.0/10

GENRE: Drama


General
Unique ID : 189328808561636246186165568163384384448 (0x8E6F66F4E6CD2E3D8CAC14D7FD0BDBC0)
Complete name : Sonali Cable (2014) - 720p - WebHD-Rip - Hindi - x264 - AC3 - 5.1 - ESubs - Mafiaking - Team M2TV ExClusive.mkv
Format : Matroska
Format version : Version 4 / Version 2
File size : 939 MiB
Duration : 1h 56mn
Overall bit rate : 1 126 Kbps
Movie name : Sonali Cable (2014) - 720p - WebHD-Rip - Hindi - x264 - AC3 - 5.1 - ESubs - Mafiaking - Team M2TV ExClusive
Encoded date : UTC 2014-12-29 18:48:40
Writing application : mkvmerge v7.4.0 ('Circles') 64bit built on Dec 12 2014 12:19:56
Writing library : libebml v1.3.0 + libmatroska v1.4.1


Video
ID : 1
Format : AVC
Format/Info : Advanced Video Codec
Format profile : High@L4.1
Format settings, CABAC : Yes
Format settings, ReFrames : 4 frames
Codec ID : V_MPEG4/ISO/AVC
Duration : 1h 56mn
Bit rate : 900 Kbps
Width : 1 280 pixels
Height : 544 pixels
Display aspect ratio : 2.35:1
Frame rate mode : Constant
Frame rate : 24.000 fps
Color space : YUV
Chroma subsampling : 4:2:0
Bit depth : 8 bits
Scan type : Progressive
Bits/(Pixel*Frame) : 0.054
Stream size : 733 MiB (78%)
Title : Mafiaking
Language : Hindi
Default : Yes
Forced : No


Audio
ID : 2
Format : AC-3
Format/Info : Audio Coding 3
Mode extension : CM (complete main)
Format settings, Endianness : Big
Codec ID : A_AC3
Duration : 1h 56mn
Bit rate mode : Constant
Bit rate : 224 Kbps
Channel(s) : 6 channels
Channel positions : Front: L C R, Side: L R, LFE
Sampling rate : 48.0 KHz
Bit depth : 16 bits
Compression mode : Lossy
Stream size : 187 MiB (20%)
Title : Mafiaking
Language : Hindi
Default : Yes
Forced : No


SAMPLE WITH IN TORRENT

 

 

 

 

 

 

 

 

 

Sonali Cable (2014) - 720p - WebHD-Rip - Hindi - x264 - AC3 - 5.

 

 

 

 

 

 

 

 

Posted by 파란티스 Trackback 0 : Comment 0

댓글을 달아 주세요