빌루, Billu Barber (2009) OST - 01. Rihanna feat. Drake - What's My Name.mp3 (7.62MB)

 

 

 

 

 

 

 

 

 

 

 

 

 

[##_1N|cfile2.uf@242B3E3F5432383F145DE3.zip|filename="01. Rihanna feat. Drake - What's My Name.zip" filemime="application/zip"|_##]

 

 

 

Posted by 파란티스 Trackback 0 : Comment 0

빌루, Billu Barber (2009) Blu Ray 720p x264 Darkboy24.mp4 (394MB) 한글자막

 

 

 

 

 

 

 

 

 

 

 

 

 

 

General

Year.............: 2009
IMDB Link........: http://www.imdb.com/title/tt1230448/
https://www.youtube.com/watch?v=BJHC0WyAR6M
Gener............: Drama |Comedy
Cast.............: Shah Rukh Khan | Lara Dutta | Irfan Khan

Complete name                            Billu Barber (2009) Blu Ray  720p  x264  Darkboy24.mp4
Format                                   : MPEG-4
Format profile                           : Base Media
Codec ID                                 : isom
File size                                : 395 MiB
Duration                                 : 2h 17mn
Overall bit rate mode                    : Variable
Overall bit rate                         : 402 Kbps


Video
ID                                       : 1
Format                                   : AVC
Format/Info                              : Advanced Video Codec
Format profile                           : High@L3.1
Format settings, CABAC                   : Yes
Format settings, ReFrames                : 4 frames
Codec ID                                 : avc1
Codec ID/Info                            : Advanced Video Coding
Duration                                 : 2h 17mn
Bit rate                                 : 369 Kbps
Maximum bit rate                         : 1 365 Kbps
Width                                    : 720 pixels
Height                                   : 304 pixels
Display aspect ratio                     : 2.35:1
Frame rate mode                          : Constant
Frame rate                               : 23.976 fps
Color space                              : YUV
Chroma subsampling                       : 4:2:0
Bit depth                                : 8 bits
Scan type                                : Progressive
Bits/(Pixel*Frame)                       : 0.070
Stream size                              : 362 MiB (92%)
Writing library                          : x264 core 120 r2164 da19765
Encoding settings                        : cabac=1 / ref=2 /
Encoded date                             : UTC 2012-07-25

Audio
ID                                       : 2
Format                                   : AAC
Format/Info                              : Advanced Audio Codec
Format profile                           : HE-AAC / LC
Codec ID                                 : 40
Duration                                 : 2h 17mn
Bit rate mode                            : Variable
Bit rate                                 : 30.0 Kbps
Maximum bit rate                         : 34.4 Kbps
Channel(s)                               : 2 channels
Channel positions                        : Front: L R
Sampling rate                            : 48.0 KHz / 24.0 KHz
Compression mode                         : Lossy
Stream size                              : 29.5 MiB (7%)

 

 

 

 

 


Billu Barber (2009) Blu Ray 720p x264 Darkboy24 (Size: 409.65 MB)
   Billu Barber (2009) Blu Ray 720p x264 Darkboy24
    Billu Barber (2009) Blu Ray 720p x264 Darkboy24.mp4  394.61 MB  
   Sample-Billu Barber (2009) Blu Ray 720p x264 Darkboy24
    Sample-Billu Barber (2009) Blu Ray 720p x264 Darkboy24.mp4  1.66 MB  
   Screens
    10.png  515.23 KB  
    11.png  647.29 KB  
    12.png  616.24 KB  
    13.png  464.33 KB  
    2.png  462.02 KB  
    3.png  387.14 KB  
    4.png  404.09 KB  
    5.png  697.69 KB  
    6.png  718.59 KB  
    7.png  588.62 KB  
    8.png  359.51 KB  
    01. Rihanna feat. Drake - What's My Name.mp3  7.65 MB
    Billu Barber (2009).txt  2.78 KB
    HELLO.txt  305 bytes

 

 

 

 

 

 

 

 

Billu Barber (2009) Blu Ray 720p x264 Darkboy24.smi

 

 

 

 

Posted by 파란티스 Trackback 0 : Comment 0