'끄리쉬 3'에 해당되는 글 1건

  1. 2014.01.08 끄리쉬 3, Krrish 3 2013 Hindi DVDRip MP3 ESubs-MafiaKing.mkv (690MB) 한글자막 (2)

끄리쉬 3, Krrish 3 2013 Hindi DVDRip MP3 ESubs-MafiaKing.mkv (690MB) 한글자막

 

 

 

 

 

 

 

 

 

 

 

 

 

 

 

IMDB Rating: 6.4/10.0


GENRE: Action | Sci-Fi


General
Unique ID : 199496372661213094835469491433880908075 (0x96159A92036954E18B4412CA747B712B)
Complete name : Krrish 3 (2013) - 1CD - DVDRip - x264 - Hindi - MP3 - ESubs - Mafiaking.mkv
Format : Matroska
Format version : Version 4 / Version 2
File size : 690 MiB
Duration : 2h 33mn
Overall bit rate mode : Variable
Overall bit rate : 629 Kbps
Movie name : Krrish 3 (2013) - 1CD - DVDRip - x264 - Hindi - MP3 - ESubs - Mafiaking
Encoded date : UTC 2013-12-18 19:02:17
Writing application : mkvmerge v6.2.0 ('Promised Land') built on Apr 28 2013 12:22:01
Writing library : libebml v1.3.0 + libmatroska v1.4.0


Video
ID : 1
Format : AVC
Format/Info : Advanced Video Codec
Format profile : High@L2.1
Format settings, CABAC : Yes
Format settings, ReFrames : 5 frames
Codec ID : V_MPEG4/ISO/AVC
Duration : 2h 33mn
Bit rate : 550 Kbps
Width : 608 pixels
Height : 256 pixels
Display aspect ratio : 2.40:1
Frame rate mode : Constant
Frame rate : 23.976 fps
Color space : YUV
Chroma subsampling : 4:2:0
Bit depth : 8 bits
Scan type : Progressive
Bits/(Pixel*Frame) : 0.147
Stream size : 589 MiB (85%)
Title : Mafiaking

Language : Hindi
Default : Yes
Forced : No


Audio
ID : 2
Format : MPEG Audio
Format version : Version 1
Format profile : Layer 3
Mode : Joint stereo
Mode extension : MS Stereo
Codec ID : A_MPEG/L3
Codec ID/Hint : MP3
Duration : 2h 27mn
Bit rate mode : Variable
Bit rate : 80.0 Kbps
Channel(s) : 2 channels
Sampling rate : 32.0 KHz
Compression mode : Lossy
Delay relative to video : 432ms
Stream size : 84.4 MiB (12%)
Title : Mafiaking
Writing library : LAME3.99r
Encoding settings : -m j -V 4 -q 2 -lowpass 13.5 --abr 80
Language : Hindi
Default : Yes
Forced : No


SAMPLE WITH IN TORRENT

 

 

 

 

 

 

 

 

 

 

 

Krrish 3 (2013) - 1CD - DVDRip - x264 - Hindi - MP3 - ESubs - Ma

 

 

 

Posted by 파란티스 Trackback 0 : Comment 2

댓글을 달아 주세요

  1. addr | edit/del | reply 랑비 2014.01.12 18:28

    바로 인도영화를 또 제작하셨군요~
    리틱은 인도의(힌디쪽)의 3대칸과 더불어 가장 핫한 인물이긴 하죠..
    배우로서 인도에서 이만큼 춤을 잘 추는 사람도 없을 정도죠~^^
    koi mil gaya 가 크리쉬1편
    그냥 "크리쉬"가 2편
    이번이 3편이 되는군요~^^
    최근 부상에서 회복되고 바로 찍은 크리쉬3에 ,,얼마전 이혼까지..
    사연이 많이지는 친구더군요..
    인도 맛살을 좋아하는 1인으로써 정말 감사히 잘 보겠습니다~^^

  2. addr | edit/del | reply 옹야 2016.02.15 00:23

    감사합니다~~